Jump to content
СофтФорум - всё о компьютерах и не только

storoz19

Active Members
  • Posts

    105
  • Joined

  • Last visited

About storoz19

Recent Profile Visitors

2670 profile views

storoz19's Achievements

0

Reputation

  1. Спасибо всем кто отвечал, вопрос решен. Это - Артем Каменистый «S-T-I-K-S. Похождения Карата» Тему можно закрывать.
  2. Спасибо за ответ. Прошу меня извинить, надо было сразу уточнить, автор российский или русскоязычный, но не зарубежный. Простите.
  3. Здравствуйте. Читал в своё время эту серию романов, захотелось перечитать вновь, но увы не помню автора и названия романа. Это фантастика, сюжет вкратце такой... Периодически с планеты Земля, по нескольку районов вместе с почвой и что на ней перемещается на другую планету. Часть людей (бОльшая) превращается почти сразу нечто вроде зомби, другая (меньшая) получает иммунитет и остальные так же получают иммунитет, но временный и в течении примерно 10 лет они тоже обращаются в зомби. Люди получившие иммунитет при убийстве зомби из затылочной части достают нечто типа яйца и употребляют, посредством этого они улучшают свои характеристики. Зомби так же кстати при поедании людей и сородичей улучшаются. Вот вкратце сюжет серии. Помогите пожалуйста, как только не искал в поисковиках, но или не правильно что то делал или ещё что то. Или посоветуйте пожалуйста ресурс где можно реально получить помощь в моих поисках. Спасибо.
  4. Общее Полное имя : D:\Downloads\Видео\The Walking Dead 2 - LostFilm.TV\The.Walking.Dead.S02E01.rus.LostFilm.TV.avi Формат : AVI Формат/Информация : Audio Video Interleave Размер файла : 925 Мбайт Продолжительность : 1 ч. 2 м. Общий поток : 2 056 Кбит/сек Программа кодирования : Nandub v1.0rc2 Библиотека кодирования : Nandub build 1853/release Видео Идентификатор : 0 Формат : MPEG-4 Visual Профиль формата : Simple@L3 Параметр BVOP формата : Нет Параметр QPel формата : Нет Параметр GMC формата : Без точки перехода Параметр матрицы формата : Default (H.263) Идентификатор кодека : XVID Идентификатор кодека/Подсказка : XviD Продолжительность : 1 ч. 2 м. Битрейт : 1 915 Кбит/сек Ширина : 720 пикселей Высота : 400 пикселей Соотношение сторон : 16:9 Частота кадров : 23,976 (24000/1001) кадра/сек Цветовое пространство : YUV Субдискретизация насыщенности : 4:2:0 Битовая глубина : 8 бит Тип развёртки : Прогрессивная Метод сжатия : С потерями Бит/(Пиксели*Кадры) : 0.277 Размер потока : 862 Мбайт (93%) Библиотека кодирования : XviD 1.2.1 (UTC 2008-12-04) Аудио Идентификатор : 1 Формат : MPEG Audio Версия формата : Version 1 Профиль формата : Layer 3 Настройки формата : Joint stereo / MS Stereo Идентификатор кодека : 55 Идентификатор кодека/Подсказка : MP3 Продолжительность : 1 ч. 2 м. Вид битрейта : Постоянный Битрейт : 128 Кбит/сек Каналы : 2 канала Частота : 48,0 КГц Метод сжатия : С потерями Задержка видео : 1 мс. Размер потока : 57,6 Мбайт (6%) Выравнивание : Соединение по промежуткам Продолжительность промежутка : 24 мс. (0,58 видеокадр) Время предзагрузки промежутка : 481 мс. Спасибо всем за ответы! Скопировал как Вы советовали, китайская грамота для меня =). Я заметил что файлы особенно маленькие 200-300 мб(1 серия) не хотят воспроизводится. Теперь хочу понять, какие видео файлы можно мне скачивать, что бы не делать дважды одно и то же действие.
  5. Здравствуйте. Вновь вопрос мой о телевизоре, а точнее о видео форматах кои воспроизводит оный телевизор. К примеру LG 43UF7787, воспроизводил все форматы, которыми я пользовался для просмотра фильмов на тв. По крайней мере не было ни разу предупреждения ты о невозможности воспроизведения фильма. ТВ LG 50NANO753PA, не приятно меня удивил, вроде более современный тв, а вот некоторые видео файлы воспроизводить отказывается. И я теряюсь в догадках. Я понимаю нужны технические параметры видеофайлов, которые работаю и которые не работают на телевизоре, последнем. Не разбираюсь в этом, все файлы в avi формате, к примеру в mkv формате всегда воиспроизводится видео на ты. Скажите пожалуйста, что можно сделать? Спасибо.
  6. Всем спасибо, я всё понял. Скажите пожалуйста, где я могу надёжно купить цифровой код и забыть про всё это...?
  7. Установку SSD производилось в фирме как и установку вин 10. Работник уверил меня что с вин10 всё в порядке, проблем не будет. Но увы, звонить не стал, смысла не вижу, всё равно скажут всё нормально =). Такой у нас порой сервис =). Пробовал звонить, набрал номер, и .... тишина, вообще ничего. Скажите пожалуйста, может просто цифровой ключ купить и всё? Просто подскажите пожалуйста, где можно этот ключ купить, и гарантированно его получить. Если тут нельзя ссылки давать, пожалуйста сообщите мне тут на форуме личным сообщением.
  8. Нет не сборка и до 10 была лицензионная 7ка, потом я эту 7ку обновил до 10. Ключ не помню где, за давностью лет потерялся... По поводу позвонить видел всё что Вы описали, но как-то не решился =). У меня стационарный ПК и как писал выше ключ не помню.
  9. Здравствуйте. Менял SSD где был установлен вин10. И был заново установлена эта программа, зашёл в свой аккаунт майкрасовтовский. И по прошествии энного количества времени при включении компа стало появляться вот такое сообщение. Поискал ответы и увы, не понимаю чего хочет система, вернее не знаю что делать. Прикрепляю скриншоты. На 1ом собственно само сообщение, а на 2ом страница активации. До этого у меня была лицензированная версия вин10. Что теперь делать, посоветуйте пожалуйста. Новый ключ покупать? Это самый лёгкий путь как я демаю? 😃
  10. Спасибо попробую. Скачал программу, вроде файл exe, а не устанавливается, он что портативный?
  11. Здравствуйте. Всех с Новым Годом, здоровья, благополучия и процветания! Оказывается эта программа не бесплатна =(. Я антивирусную программы решил не ставить, как я понимаю защита виндовса должна справится. Ничего особенного не скачиваю, только иногда, фильмы, музыку и книги, хотя наверно во всём этом и сидят всякие черви и прочее? Искал в сети в поиске, что то не сложное и бесплатное, но не определился, подскажите пожалуйста такую программу.
  12. Я извиняюсь, я был не точен в своем первом посте. А именно, изначально было ц у меня 2 SSD, 120гиг - система и 500гиг - всё остальное. Я просто ошибся и не правильно понял работника фирмы, я решил что проблемы с 500гиг диском и заказал такой же. А оказалось что плох 120гиг диск, где была система, ну и теперь решил установить под систему 500гиг диск. Отсюда и вопрос мой, теперь как бы 500гиг диск, старый, и не нужен.
  13. Аууу, уважаемые, поделитесь своим бесценным опытом.
  14. Спасибо всем! Всё-таки установил Авг бесплатный, посмотрел про очень дорого, почти 60 евро.
×
×
  • Create New...